• Announcements

    • andrewilley

      Poweramp v3 Project Update   04/24/2017

      As you may be aware, the Poweramp developer has been working hard on an updated material design user interface for Poweramp v3 which required a full ground-up rebuild of the code and is taking some time to get to a beta-test stage. See the forum thread for more details and to discuss.    

Jonesie

Approved Members
  • Content count

    3
  • Joined

  • Last visited

About Jonesie

  • Rank
    Newbie

Profile Information

  • Gender
    Male
  • Location
    North Yorkshire, England
  • Interests
    Physics, Mathematics, Chemistry, Music, Computing
  1. Problem solved, at least temporarily. Poweramp expects (AFAIK) utf-8 encoded cue files, so I just vim-ed the files and overwrote them.
  2. Hi, any progress on this? Cheers, Jon
  3. Hi, I've just submitted my bug report using the google form. I'm opening this thread because this discussion might help other people or lead to a better characterisation of the problem. My data, copied from the google form: Phone: Samsung Galaxy S III, Android 4.3 Poweramp build: 2.0.9-build-554-play (Full Version) Kernel details: Kernel 3.0.31-2168382 se.infra@R0301-02 #1 28 Nov 2013 Issue:I've noticed that Poweramp doesn't parse certain cuesheets that I use in combination with FLAC or AAC files. Here is an example, ripped directly from my original CD; I can play the AAC file separately, and it's name is exactly what appears on the cuesheet: TITLE "Live At Wembley Stadium (1/2)”PERFORMER "Queen"CATALOG 0724359044224REM GENRE "Rock"REM DATE "2003"REM DISCID C10E2A0DFILE “live1.m4a" WAVE TRACK 01 AUDIO TITLE "One Vision" ISRC GBCEE9200011 INDEX 01 00:00:00 TRACK 02 AUDIO TITLE "Tie Your Mother Down" ISRC GBCEE9200012 INDEX 01 05:49:55 TRACK 03 AUDIO TITLE "In The Lap Of The Gods" ISRC GBCEE9200013 INDEX 01 09:55:58 TRACK 04 AUDIO TITLE "Seven Seas Of Rhye" ISRC GBCEE9200004 INDEX 01 12:25:20 TRACK 05 AUDIO TITLE "Tear It Up" ISRC GBCEE9200014 INDEX 01 13:43:53 TRACK 06 AUDIO TITLE "A Kind Of Magic" ISRC GBCEE9200015 INDEX 01 15:55:70 TRACK 07 AUDIO TITLE "Under Pressure" ISRC GBCEE9200016 INDEX 01 24:37:23 TRACK 08 AUDIO TITLE "Another One Bites The Dust" ISRC GBCEE9200017 INDEX 01 28:18:23 TRACK 09 AUDIO TITLE "Who Wants To Live Forever" ISRC GBCEE9200018 INDEX 01 34:17:18 TRACK 10 AUDIO TITLE "I Want To Break Free" ISRC GBCEE9200019 INDEX 01 38:24:60 TRACK 11 AUDIO TITLE "Impromptu" ISRC GBCEE9200020 INDEX 01 41:59:00 TRACK 12 AUDIO TITLE "Brighton Rock Solo" ISRC GBCEE9200021 INDEX 01 44:55:68 TRACK 13 AUDIO TITLE "Now I'm Here" ISRC GBCEE9200022 INDEX 01 54:06:55 Thanks! Jonesie