Jump to content
Sign in to follow this  
Vic333

Tag Editor, Disc No field

Recommended Posts

I noticed that the tag editor feature in Poweramp does not allow me to change the disc number field. If this field is incorrect, songs get disordered in their lists. Any chance this could get added in a future release?

 

Thanks

Share this post


Link to post
Share on other sites

i second this.  I have all my albums as single file flac albums and use the disc tags.  The problem it will organise them

 

album 1 track 1

album 2 track 1

album1 track 2

album 2 track 2

 

I am coming over from using neutron player where it properly organises the tracks (in nertron it make a disc1 and disc2 album under the artist, but having them just sort properly would be OK.

 

It would be great if we could get this fixed.  I am wiling to test beta releases for this.  This and one other issue i have and it be comperable to neutron for me.

 

Thanks,

 

Sean

Share this post


Link to post
Share on other sites

Ive got the same Problem, but neutron isnt a Alternative for me.

 

I found an other solution: For powerampapp i edit multidisc-albums cue-Files and change the Track-Number, Example:

 

First CD

REM DATE 1975REM DISCID E60B0B11REM COMMENT "ExactAudioCopy v1.0b3"PERFORMER "The Who"TITLE "Tommy"FILE "The Who - 1975 - Tommy 1of2.flac" WAVE  TRACK 101 AUDIO    TITLE "Overture"    PERFORMER "Pete Townshend"    INDEX 01 00:00:00  TRACK 102 AUDIO    TITLE "Prologue 1945"    PERFORMER "Pete Townshend"    INDEX 01 05:01:22  TRACK 103 AUDIO    TITLE "Captain Walker / It's a Boy"    PERFORMER "Pete Townshend"    INDEX 01 07:58:21  TRACK 104 AUDIO    TITLE "Bernie's Holiday Camp"    PERFORMER "Pete Townshend"    INDEX 00 10:34:46    INDEX 01 10:35:00  TRACK 105 AUDIO    TITLE "1951 / What About the Boy"    PERFORMER "Pete Townshend"    INDEX 01 14:17:53  TRACK 106 AUDIO    TITLE "Amazing Journey"    PERFORMER "Pete Townshend"    INDEX 01 17:06:57  TRACK 107 AUDIO    TITLE "Christmas"    PERFORMER "Pete Townshend"    INDEX 00 20:25:11    INDEX 01 20:25:39[...]

Second one:

REM DATE 1975REM DISCID E10A3F0FREM COMMENT "ExactAudioCopy v1.0b3"PERFORMER "The Who"TITLE "Tommy"FILE "The Who - 1975 - Tommy 2of2.flac" WAVE  TRACK 201 AUDIO    TITLE "Champagne"    PERFORMER "Pete Townshend"    INDEX 01 00:00:00  TRACK 202 AUDIO    TITLE "There's a Doctor"    PERFORMER "Pete Townshend"    INDEX 00 04:42:15    INDEX 01 04:42:59  TRACK 203 AUDIO    TITLE "Go to the Mirror"    PERFORMER "Pete Townshend"    INDEX 01 05:05:03  TRACK 204 AUDIO    TITLE "Tommy Can You Hear Me?"    PERFORMER "Pete Townshend"    INDEX 00 09:02:17    INDEX 01 09:02:22[...]

This works! I've an extra Folder on my PC for powerampapp's cue-Files. My PC-Player use the normal cue-Files.

 

OT: Some Album-Arts dont work in the Album-View, but when i create a thumb in \Android\data\_com.maxmpz.audioplayer\micro manually, it works. powerampapp dont extract the interpret exactly.

Share this post


Link to post
Share on other sites

I'll third this, would be a very useful which would require no UI changes. Particularly useful for people who have sets of classical music, eg complete Mozart Symphonies across 13 CDs which get played in a pretty bizarre order.

Share this post


Link to post
Share on other sites

Join the conversation

You can post now and register later. If you have an account, sign in now to post with your account.

Guest
Reply to this topic...

×   Pasted as rich text.   Paste as plain text instead

  Only 75 emoji are allowed.

×   Your link has been automatically embedded.   Display as a link instead

×   Your previous content has been restored.   Clear editor

×   You cannot paste images directly. Upload or insert images from URL.

Sign in to follow this  

×
×
  • Create New...