Jump to content

Advance Category Not Playing Next Album


Recommended Posts

So I have Advance Category selected in the player so when one album is done, the next one in alphabetical order will play. This works fine except for one specific album. After it's over it just stops.  I didn't have this problem until recently when I switched phones to a Galaxy S8.

The album in question is one big Flac file with a Cue. I've used this exact set of files on other phones w/Poweramp without any issue.

I just can't figure out why playback will just stop. I've added a screenshot of what Poweramp looks like when the track ends so you can see I have the Advance Category option selected.   I've looked around in the settings a few times but nothing sticks out as a solution.  Any help would be appreciated.  I'm on build 939 btw. 

Screenshot_20220610-133728_Poweramp.jpg

Link to comment
Share on other sites

Do other 'albums' created from CUE files work correctly and continue into the next album? Even if it was the last album in the list, Advance Category should still go back to the start again (effectively it means "Repeat All Categories", there isn't currently a "Play All Categories" option which stops at the end of the last album).

[Edit] I just tried with a CUE-generated album and it worked fine, next album played afterwards. Could you post a copy of the CUE file here (it'll be plain text, so just paste the contents into the message editor).

Andre

Link to comment
Share on other sites

On 6/10/2022 at 2:26 PM, andrewilley said:

Do other 'albums' created from CUE files work correctly and continue into the next album? Even if it was the last album in the list, Advance Category should still go back to the start again (effectively it means "Repeat All Categories", there isn't currently a "Play All Categories" option which stops at the end of the last album).

[Edit] I just tried with a CUE-generated album and it worked fine, next album played afterwards. Could you post a copy of the CUE file here (it'll be plain text, so just paste the contents into the message editor).

Andre

Hi Andre.  Thanks for responding and apologies for taking so long to get back to this.  Anyway, to answer your question, yes other albums with CUE files work correctly and go to the next album.  All of my Lamb Of God albums are each one big FLAC with a CUE and they all move to the next album.  They are also all in one folder w/sub folders for each album on my micro sd card as well if that makes any difference.  The one in question did work fine up until I got this new phone.  I know it's not the biggest problem to have, but I'm scratching my head trying to figure out why.  Here is the CUE as requested.  Thanks for taking a look.

 

REM GENRE Metal
REM DATE 2004
REM DISCID AA0EF00C
REM COMMENT "ExactAudioCopy v1.0b3"
PERFORMER "Lamb Of God"
TITLE "Ashes Of The Wake"
FILE "Lamb Of God - 2004 - Ashes Of The Wake.flac" WAVE
  TRACK 01 AUDIO
    TITLE "Laid To Rest"
    PERFORMER "Lamb Of God"
    ISRC USSM10409073
    INDEX 01 00:00:00
  TRACK 02 AUDIO
    TITLE "Hourglass"
    PERFORMER "Lamb Of God"
    ISRC USSM10409142
    INDEX 01 03:50:17
  TRACK 03 AUDIO
    TITLE "Now You've Got Something To Die For"
    PERFORMER "Lamb Of God"
    ISRC USSM10409139
    INDEX 01 07:50:42
  TRACK 04 AUDIO
    TITLE "The Faded Line"
    PERFORMER "Lamb Of God"
    ISRC USSM10409138
    INDEX 01 11:30:25
  TRACK 05 AUDIO
    TITLE "Omerta"
    PERFORMER "Lamb Of God"
    ISRC USSM10409132
    INDEX 01 16:07:42
  TRACK 06 AUDIO
    TITLE "Blood Of The Scribe"
    PERFORMER "Lamb Of God"
    ISRC USSM10409133
    INDEX 01 20:53:40
  TRACK 07 AUDIO
    TITLE "One Gun"
    PERFORMER "Lamb Of God"
    ISRC USSM10409137
    INDEX 01 25:17:05
  TRACK 08 AUDIO
    TITLE "Break You"
    PERFORMER "Lamb Of God"
    ISRC USSM10409141
    INDEX 01 29:16:27
  TRACK 09 AUDIO
    TITLE "What I've Become"
    PERFORMER "Lamb Of God"
    ISRC USSM10409136
    INDEX 00 32:50:67
    INDEX 01 32:52:22
  TRACK 10 AUDIO
    TITLE "Ashes Of The Wake"
    PERFORMER "Lamb Of God"
    ISRC USSM10409140
    INDEX 01 36:21:15
  TRACK 11 AUDIO
    TITLE "Remorse Is For The Dead"
    PERFORMER "Lamb Of God"
    ISRC USSM10409135
    INDEX 01 42:06:30

-----------------------------------------------------------------------------

Edit:  Here is the CUE for the album that should play after the above album:

REM GENRE Metal
REM DATE 2005
REM DISCID D10B800F
REM COMMENT ExactAudioCopy v1.0b3
PERFORMER "Lamb of God"
TITLE "Burn The Priest"
FILE "Burn The Priest - 2005 - Burn The Priest.flac" WAVE
  TRACK 01 AUDIO
    TITLE "Bloodletting"
    ISRC USSM10404515
    INDEX 01 00:00:00
  TRACK 02 AUDIO
    TITLE "Dimera"
    ISRC USSM10404516
    INDEX 01 01:57:06
  TRACK 03 AUDIO
    TITLE "Resurrection #9"
    ISRC USSM10404517
    INDEX 01 04:24:68
  TRACK 04 AUDIO
    TITLE "Goatfish"
    ISRC USSM10404518
    INDEX 01 09:40:00
  TRACK 05 AUDIO
    TITLE "Salivation"
    ISRC USSM10404519
    INDEX 00 12:02:61
    INDEX 01 12:03:13
  TRACK 06 AUDIO
    TITLE "Lies Of Autumn"
    ISRC USSM10404520
    INDEX 01 14:15:55
  TRACK 07 AUDIO
    TITLE "Chronic Auditory Hallucination"
    ISRC USSM10404521
    INDEX 01 19:03:02
  TRACK 08 AUDIO
    TITLE "Suffering Bastard"
    ISRC USSM10404522
    INDEX 01 22:56:71
  TRACK 09 AUDIO
    TITLE "Buckeye"
    ISRC USSM10404523
    INDEX 01 25:04:54
  TRACK 10 AUDIO
    TITLE "Lame"
    ISRC USSM10404524
    INDEX 01 29:02:26
  TRACK 11 AUDIO
    TITLE "Preaching To The Converted"
    ISRC USSM10404525
    INDEX 00 30:53:25
    INDEX 01 30:53:54
  TRACK 12 AUDIO
    TITLE "Departure Hymn"
    ISRC USSM10404526
    INDEX 01 33:26:11
  TRACK 13 AUDIO
    TITLE "Duane"
    ISRC USSM10404527
    INDEX 01 36:05:32
  TRACK 14 AUDIO
    TITLE "Ruiner"
    ISRC USSM10413771
    INDEX 01 38:23:05
 

Link to comment
Share on other sites

After my last response I deleted/reuploaded the affected files again and reinstalled Poweramp with no luck somehow.  At that point I decided to go nuclear and just wipe the phone and start over which I do periodically anyway.  Then it started to work properly.  So I really don't have any idea what was up with it.  Maybe a system update somewhere down the line caused some kind of obscure Android corruption.  I don't think it was directly related to Poweramp.  Thanks for taking the time to help me out.

Link to comment
Share on other sites

Join the conversation

You can post now and register later. If you have an account, sign in now to post with your account.

Guest
Reply to this topic...

×   Pasted as rich text.   Paste as plain text instead

  Only 75 emoji are allowed.

×   Your link has been automatically embedded.   Display as a link instead

×   Your previous content has been restored.   Clear editor

×   You cannot paste images directly. Upload or insert images from URL.

 Share

×
×
  • Create New...