Jump to content

Track sorting in .cue files


6b6561
 Share

Recommended Posts

PA build 871.

Tracks are not sorted correctly for  album flac files with cue files / embedded cue sheets.

 - Option "By filename" sorts the tracks by track #.

 - Option "By track#" sorts the tracks alphabetically.

1576058314_Screenshot_2020-05-15-10-07-30-776_com.maxmpz.audioplayer-correct.thumb.jpg.148036b2e95262c26f737b5aa7a6d7ba.jpg1636274823_Screenshot_2020-05-15-10-07-12-870_com.maxmpz.audioplayer-wrong.thumb.jpg.c780cd183cde402ddab191807ab9e10d.jpg

FILE "Pink Floyd - The Dark Side Of The Moon.wav" WAVE
  TRACK 01 AUDIO
    TITLE "Speak To Me"
    PERFORMER "Pink Floyd"
    REM COMPOSER ""
    INDEX 01 00:00:00
  TRACK 02 AUDIO
    TITLE "Breathe (In The Air)"
    PERFORMER "Pink Floyd"
    REM COMPOSER ""
    INDEX 01 01:07:13
  TRACK 03 AUDIO
    TITLE "On The Run"
    PERFORMER "Pink Floyd"
    REM COMPOSER ""
    INDEX 01 03:56:53

 

Edited by 6b6561
Missing information
Link to comment
Share on other sites

Quote

- Option "By filename" sorts the tracks by track #.

I hope that's not a bug, it's sorting by the actual filename.

FILE "Pink Floyd - The Dark Side Of The Moon.wav" WAVE

This is the setting I've used for years for multi-disc cue albums, so that it sorts them correctly, without mixing the tracks:

Artist - Album CD1.cue

Artist - Album CD2.cue

etc.

Edited by djdarko
Link to comment
Share on other sites

Join the conversation

You can post now and register later. If you have an account, sign in now to post with your account.

Guest
Reply to this topic...

×   Pasted as rich text.   Paste as plain text instead

  Only 75 emoji are allowed.

×   Your link has been automatically embedded.   Display as a link instead

×   Your previous content has been restored.   Clear editor

×   You cannot paste images directly. Upload or insert images from URL.

 Share

×
×
  • Create New...