Jump to content

SergeT

New Members
  • Content Count

    1
  • Joined

  • Last visited

About SergeT

  • Rank
    Newbie
  1. Смартфон Samsung Galaxy S ii, Poweramp 2.0.4 467 Образ СD группы RUSH "2112" 1976 г., сделан программой EAC в формате CUE/FLAC. Первый трек диска продлжительностью около 20 мин содержит 7 субиндексов. Образ проигрывается на PC без проблем. Poweramp показывает продолжительность первого трека 16 мин и перескакивает при его проигрывании на 2 трек. CUE sheet: REM DATE 1976 REM DISCID 4F091C06 REM COMMENT "ExactAudioCopy v1.0b3" PERFORMER "Rush" TITLE "2112" FILE "2112.flac" WAVE TRACK 01 AUDIO TITLE "2112: Overture/The Temples of Syrinx/Discovery/Presentation/Oracle:The Dream/..." PERFORMER "Rush" ISRC USMR17600034 INDEX 01 00:00:00 INDEX 02 04:32:40 INDEX 03 06:46:00 INDEX 04 10:15:22 INDEX 05 13:57:27 INDEX 06 15:57:35 INDEX 07 18:18:45 TRACK 02 AUDIO TITLE "A Passage to Bangkok" PERFORMER "Rush" ISRC USMR17600035 INDEX 00 20:32:67 INDEX 01 20:33:35 TRACK 03 AUDIO TITLE "The Twilight Zone" PERFORMER "Rush" ISRC USMR17600036 INDEX 00 24:07:47 INDEX 01 24:08:30 TRACK 04 AUDIO TITLE "Lessons" PERFORMER "Rush" ISRC USMR17600037 INDEX 00 27:25:70 INDEX 01 27:27:57 TRACK 05 AUDIO TITLE "Tears" PERFORMER "Rush" ISRC USMR17600038 INDEX 00 31:18:05 INDEX 01 31:20:20 TRACK 06 AUDIO TITLE "Something for Nothing" PERFORMER "Rush" ISRC USMR17600039 INDEX 00 34:50:55 INDEX 01 34:54:40
×
×
  • Create New...