Jump to content
Poweramp

pinaev

Approved Members
  • Content count

    4
  • Joined

  • Last visited

About pinaev

  • Rank
    Newbie
  1. Excellent support... Not even a notification on opening a ticket after I submitted a bug report following http://forum.powerampapp.com/index.php?/topic/3167-bug-reporting-form-the-fast-way-to-fix-your-problems/
  2. Renamed the long MP3 file to "72.mp3". Stripped the CUE file to the following: TITLE "Female Vocal Trance 72"FILE "72.mp3" WAVETRACK 01 AUDIOINDEX 01 00:00:00TITLE "Angel" Nothing seems to work. The long 50-minute MP3 track shows up in the list, but the CUE file, however, is just always ignored by Poweramp...
  3. Andre, Thanks for your help! All to no avail however. Tried: 1. Removing all other tracks from the CUE file, leaving only [the first] one. 2. Different CUE file encodings, again, in combination with the previous step. 3. Removed all other CUE files just to be sure there is only one CUE file that I am experimenting with. 4. Provided the absolute file path to the MP3 file in the "FILE" line. Used two versions starting with "/sdcard/Music/..." and "/storage/emulated/0/Music/...". To answer your questions, both the MP3 and the CUE files are always in the same folder. The MP3 file always shows up as a long track regardless whether I check off "Show CUE disc image files" in the "Lists" section under "Folders and Library" or not. Also, to avoid the question, "Parse CUE files" setting under "Folders/Library Scanner" is checked off (turned on). No Virtual folder ever shows up however. Any other suggestions? Thanks again!!!
  4. Can't make Poweramp on Android recognize/play .CUE files... Poweramp: 2.0.10-build-581-play (Full Version, purchased) Google Nexus 5 Android 5.1.1 The .CUE file is in a standard format and referring to a single MP3 file: TITLE "[Trance] Female Vocal Trance (Voices in my Head) #72"PERFORMER "VideoPhixa"FILE "[Trance] Female Vocal Trance (Voices in my Head) #72.mp3" WAVE TRACK 01 AUDIO TITLE "Angel (Walsh & McAuley Remix)" PERFORMER "Giuseppe Ottaviani Feat. Faith" INDEX 01 00:00:00 TRACK 02 AUDIO TITLE "Antara (The Circle) (Radio edit)" PERFORMER "Alex M.O.R.P.H. feat. Sylvia Tosun" INDEX 01 05:10:00 No matter what I try, Poweramp just does not see the .CUE file. Tried: 1. Changed line inside the CUE file to <<FILE "[Trance] Female Vocal Trance (Voices in my Head) #72.mp3" MP3>> (without the << and >>, obviously) 2. Changed encoding of the CUE file to "ANSI", "UTF-8", and "UTF-8 + BOM" 3. Placed the CUE and the corresponding MP3 files in an isolated folder (without any other files in it) Any help would be greatly appreciated...
×