Jump to content
Poweramp

alegur

Approved Members
  • Content Count

    3
  • Joined

  • Last visited

About alegur

  • Rank
    Newbie
  1. БАГ №1 ВАЖНО! Некорректно читаютcя некоторые .cue файлы, а именно неправильно указывается на экране длительность песни и соответственно при воспроизведении песня играется не до конца и прерывается. На компьютере (foobar2000) всё нормально воспроизводится, то есть проблема точно в плеере а не в .cue файле. Вот содержимое .cue: REM GENRE "Pagan/Folk/Black Metal" REM DATE 2003 PERFORMER "Moonsorrow" TITLE "Kivenkantaja" FILE "Moonsorrow - Kivenkantaja.flac" WAVE TRACK 01 AUDIO TITLE "Raunioilla" PERFORMER "Moonsorrow" INDEX 01 00:00:00 INDEX 02 02:22:23 INDEX 03 10:24:06 TRACK 02 AUDIO TITLE "Unohduksen Lapsi" PERFORMER "Moonsorrow" INDEX 01 13:36:50 TRACK 03 AUDIO TITLE "Jumalten Kaupunki / Tuhatvuotinen Perintö" PERFORMER "Moonsorrow" INDEX 01 21:54:05 INDEX 02 23:02:36 TRACK 04 AUDIO TITLE "Kivenkantaja" PERFORMER "Moonsorrow" INDEX 01 32:36:60 TRACK 05 AUDIO TITLE "Tuulen Tytär / Soturin Tie" PERFORMER "Moonsorrow" INDEX 01 40:16:50 INDEX 02 44:14:18 INDEX 03 45:42:62 TRACK 06 AUDIO TITLE "Matkan Lopussa" PERFORMER "Moonsorrow" INDEX 01 48:53:05 БАГ №2: Не отображаются обложки альбома в библиотеке Обложки не вшиты, а лежат рядом с .flac и .cue в одной папке в формате: %filename%.jpg, %filename%.flac, %filename%.cue: Просьба исправить как можно скорее! Версия 2.0.9 билд 564.
  2. (Sorry for my english ). It would be great to integrate into the player built-in smooth volume control. Because it is very bad when turn up the volume on one step, the volume added very sharp. I really hope you solve this major problem . I'm using LG Optimus L1 II on Android 4.1.2.
  3. Скажите пожалуйста будет ли в плеере плавная регулировка громкости, то есть не системная а своя встроенная регулировка в самом плеере? Просто очень плохо, когда прибавляешь громкость на одно деление, а она подскакивает слишком резко. Уж очень этого не хватает.
×
×
  • Create New...